<?xml version="1.0" standalone="no"?>
<!DOCTYPE svg PUBLIC "-//W3C//DTD SVG 1.1//EN" "http://www.w3.org/Graphics/SVG/1.1/DTD/svg11.dtd" >
<svg xmlns="http://www.w3.org/2000/svg">
<metadata></metadata>
<defs>
<font id="pmdmedium" horiz-adv-x="768" >
<font-face units-per-em="2048" ascent="1536" descent="-512" />
<missing-glyph horiz-adv-x="640" />
<glyph horiz-adv-x="0" />
<glyph unicode="&#xd;" horiz-adv-x="682" />
<glyph unicode=" "  horiz-adv-x="640" />
<glyph unicode="&#x09;" horiz-adv-x="640" />
<glyph unicode="&#xa0;" horiz-adv-x="640" />
<glyph unicode="!" horiz-adv-x="512" d="M0 512v128v128v128h128v128h128v-128h128v-128v-128v-128h-128v-128v-128h-128v128v128h-128zM128 0v128h128v-128h-128z" />
<glyph unicode="&#x22;" horiz-adv-x="512" d="M0 768v128v128h128v-128v-128h-128zM256 768v128v128h128v-128v-128h-128z" />
<glyph unicode="#" horiz-adv-x="1024" d="M0 640v128h128h128v128h-128v128h128h128v128h128v-128h128v128h128v-128h128v-128h-128h-128v-128h128v-128h-128h-128v-128h-128v128h-128v-128h-128v128h-128zM384 768h128v128h-128v-128z" />
<glyph unicode="$" d="M0 128v128h128v-128h-128zM0 512v128v128h128v128h128v128h128v-128h128v-128h128v-128h-128v128h-128v-128v-128h128v-128h128v-128v-128h-128v128v128h-128v-128v-128h128v-128h-128v-128h-128v128h-128v128h128v128v128h-128v128h-128zM128 512h128v128v128h-128v-128 v-128z" />
<glyph unicode="%" horiz-adv-x="1152" d="M0 768v128v128h128v-128v-128h-128zM128 128v128v128h128v-128v-128h-128zM128 640v128h128h128v-128h-128h-128zM128 1024v128h128h128v-128h-128h-128zM256 384v128h128v-128h-128zM384 512v128h128v-128h-128zM384 768v128v128h128v-128v-128h-128zM512 256v128v128 h128v-128v-128h-128zM512 640v128h128v-128h-128zM640 128v128h128h128v-128h-128h-128zM640 512v128h128h128v-128h-128h-128zM640 768v128h128v-128h-128zM768 896v128h128v-128h-128zM896 256v128v128h128v-128v-128h-128zM896 1024v128h128v-128h-128z" />
<glyph unicode="&#x26;" horiz-adv-x="1024" d="M0 128v128v128h128v-128v-128h-128zM128 0v128h128h128v-128h-128h-128zM128 384v128h128v-128h-128zM128 640v128v128h128v-128v-128h-128zM256 512v128h128v-128h-128zM256 896v128h128h128v-128h-128h-128zM384 128v128h128v-128h-128zM384 384v128h128v-128h-128z M384 640v128h128v-128h-128zM512 256v128h128v-128h-128zM512 768v128h128v-128h-128zM640 128v128h128v-128h-128zM640 384v128h128v-128h-128zM768 0v128h128v-128h-128z" />
<glyph unicode="'" horiz-adv-x="256" d="M0 768v128v128h128v-128v-128h-128z" />
<glyph unicode="(" horiz-adv-x="512" d="M0 256v128v128v128h128v-128v-128v-128h-128zM128 0v128v128h128v-128v-128h-128zM128 640v128v128h128v-128v-128h-128zM256 0h128v-128h-128v128zM256 896v128h128v-128h-128z" />
<glyph unicode=")" horiz-adv-x="512" d="M0 0h128v-128h-128v128zM0 896v128h128v-128h-128zM128 0v128v128h128v-128v-128h-128zM128 640v128v128h128v-128v-128h-128zM256 256v128v128v128h128v-128v-128v-128h-128z" />
<glyph unicode="*" d="M0 768v128h128h128v128h128v-128h128h128v-128h-128h-128v-128h-128v128h-128h-128zM128 512v128h128v-128h-128zM128 1024v128h128v-128h-128zM384 512v128h128v-128h-128zM384 1024v128h128v-128h-128z" />
<glyph unicode="+" d="M0 384v128h128h128v128v128h128v-128v-128h128h128v-128h-128h-128v-128v-128h-128v128v128h-128h-128z" />
<glyph unicode="," horiz-adv-x="384" d="M0 0h128v-128h-128v128zM128 0v128v128h128v-128v-128h-128z" />
<glyph unicode="-" horiz-adv-x="640" d="M0 384v128h128h128h128h128v-128h-128h-128h-128h-128z" />
<glyph unicode="." horiz-adv-x="384" d="M128 0v128h128v-128h-128z" />
<glyph unicode="/" horiz-adv-x="640" d="M0 0v128v128h128v-128v-128h-128zM128 256v128v128h128v-128v-128h-128zM256 512v128v128h128v-128v-128h-128zM384 768v128v128h128v-128v-128h-128z" />
<glyph unicode="0" d="M0 128v128v128v128v128v128v128h128v-128v-128h128v-128h-128v-128v-128v-128h-128zM128 0v128h128h128h128v-128h-128h-128h-128zM128 896v128h128h128h128v-128h-128h-128h-128zM256 384v128h128h128v128v128v128h128v-128v-128v-128v-128v-128v-128h-128v128v128h-128 h-128z" />
<glyph unicode="1" horiz-adv-x="384" d="M0 768v128h128v128h128v-128v-128v-128v-128v-128v-128v-128v-128h-128v128v128v128v128v128v128h-128z" />
<glyph unicode="2" d="M0 0v128v128h128v-128h128h128h128h128v-128h-128h-128h-128h-128h-128zM0 768v128h128v-128h-128zM128 256v128h128v-128h-128zM128 896v128h128h128h128v-128h-128h-128h-128zM256 384v128h128v-128h-128zM384 512v128h128v-128h-128zM512 640v128v128h128v-128v-128 h-128z" />
<glyph unicode="3" d="M0 128v128h128v-128h-128zM0 896v128h128h128h128h128h128v-128h-128v-128h-128v128h-128h-128h-128zM128 0v128h128h128h128v-128h-128h-128h-128zM128 512v128h128v128h128v-128h128v-128h-128h-128h-128zM512 128v128v128v128h128v-128v-128v-128h-128z" />
<glyph unicode="4" d="M0 256v128v128v128h128v128h128v128h128v128h128v-128v-128v-128v-128v-128h128v-128h-128v-128v-128h-128v128v128h-128h-128h-128zM128 384h128h128v128v128v128h-128v-128h-128v-128v-128z" />
<glyph unicode="5" d="M0 128v128h128v-128h-128zM0 512v128v128v128v128h128h128h128h128h128v-128h-128h-128h-128h-128v-128v-128h128h128h128v-128h-128h-128h-128h-128zM128 0v128h128h128h128v-128h-128h-128h-128zM512 128v128v128v128h128v-128v-128v-128h-128z" />
<glyph unicode="6" d="M0 128v128v128v128v128v128h128v-128h128h128h128v-128h-128h-128h-128v-128v-128v-128h-128zM128 0v128h128h128h128v-128h-128h-128h-128zM128 768v128h128v-128h-128zM256 896v128h128h128v-128h-128h-128zM512 128v128v128v128h128v-128v-128v-128h-128z" />
<glyph unicode="7" d="M0 896v128h128h128h128h128h128v-128v-128v-128h-128v128v128h-128h-128h-128h-128zM256 0v128v128v128h128v-128v-128v-128h-128zM384 384v128v128h128v-128v-128h-128z" />
<glyph unicode="8" d="M0 128v128v128v128h128v-128v-128v-128h-128zM0 640v128v128h128v-128v-128h-128zM128 0v128h128h128h128v-128h-128h-128h-128zM128 512v128h128h128h128v-128h-128h-128h-128zM128 896v128h128h128h128v-128h-128h-128h-128zM512 128v128v128v128h128v-128v-128v-128 h-128zM512 640v128v128h128v-128v-128h-128z" />
<glyph unicode="9" d="M0 512v128v128v128h128v-128v-128v-128h-128zM128 0v128h128h128v-128h-128h-128zM128 384v128h128h128h128v128v128v128h128v-128v-128v-128v-128v-128h-128v128h-128h-128h-128zM128 896v128h128h128h128v-128h-128h-128h-128zM384 128v128h128v-128h-128z" />
<glyph unicode=":" horiz-adv-x="256" d="M0 0v128h128v-128h-128zM0 512v128h128v-128h-128z" />
<glyph unicode=";" horiz-adv-x="384" d="M0 0h128v-128h-128v128zM128 0v128v128h128v-128v-128h-128zM128 512v128h128v-128h-128z" />
<glyph unicode="&#x3c;" horiz-adv-x="512" d="M0 384v128h128v-128h-128zM128 256v128h128v-128h-128zM128 512v128h128v-128h-128zM256 128v128h128v-128h-128zM256 640v128h128v-128h-128z" />
<glyph unicode="=" d="M0 256v128h128h128h128h128h128v-128h-128h-128h-128h-128h-128zM0 512v128h128h128h128h128h128v-128h-128h-128h-128h-128h-128z" />
<glyph unicode="&#x3e;" horiz-adv-x="512" d="M0 128v128h128v-128h-128zM0 640v128h128v-128h-128zM128 256v128h128v-128h-128zM128 512v128h128v-128h-128zM256 384v128h128v-128h-128z" />
<glyph unicode="?" d="M0 768v128h128v-128h-128zM128 896v128h128h128h128v-128h-128h-128h-128zM256 0v128h128v-128h-128zM256 256v128v128h128v-128v-128h-128zM384 512v128h128v-128h-128zM512 640v128v128h128v-128v-128h-128z" />
<glyph unicode="@" horiz-adv-x="1024" d="M0 256v128v128v128h128v-128v-128v-128h-128zM128 128v128h128v-128h-128zM128 640v128h128v-128h-128zM256 0v128h128h128v-128h-128h-128zM256 256v128v128v128h128h128h128v-128v-128h128v-128h-128h-128h-128h-128zM256 768v128h128h128h128v-128h-128h-128h-128z M384 384h128v128h-128v-128zM640 640v128h128v-128h-128zM768 384v128v128h128v-128v-128h-128z" />
<glyph unicode="A" d="M0 0v128v128v128v128h128v-128h128h128h128v128h128v-128v-128v-128v-128h-128v128v128h-128h-128h-128v-128v-128h-128zM128 512v128v128h128v-128v-128h-128zM256 768v128v128h128v-128v-128h-128zM384 512v128v128h128v-128v-128h-128z" />
<glyph unicode="B" d="M0 0v128v128v128v128v128v128v128v128h128h128h128h128v-128h128v-128v-128h-128v128v128h-128h-128h-128v-128v-128h128h128h128v-128h128v-128v-128v-128h-128v-128h-128h-128h-128h-128zM128 128h128h128h128v128v128v128h-128h-128h-128v-128v-128v-128z" />
<glyph unicode="C" d="M0 128v128v128v128v128v128v128h128v-128v-128v-128v-128v-128v-128h-128zM128 0v128h128h128h128v-128h-128h-128h-128zM128 896v128h128h128h128v-128h-128h-128h-128zM512 128v128h128v-128h-128zM512 768v128h128v-128h-128z" />
<glyph unicode="D" d="M0 0v128v128v128v128v128v128v128v128h128h128h128v-128h128v-128h128v-128v-128v-128v-128h-128v-128h-128v-128h-128h-128h-128zM128 128h128h128v128h128v128v128v128v128h-128v128h-128h-128v-128v-128v-128v-128v-128v-128z" />
<glyph unicode="E" horiz-adv-x="640" d="M0 0v128v128v128v128v128v128v128v128h128h128h128h128v-128h-128h-128h-128v-128v-128h128h128v-128h-128h-128v-128v-128v-128h128h128h128v-128h-128h-128h-128h-128z" />
<glyph unicode="F" horiz-adv-x="640" d="M0 0v128v128v128v128v128v128v128v128h128h128h128h128v-128h-128h-128h-128v-128v-128h128h128v-128h-128h-128v-128v-128v-128v-128h-128z" />
<glyph unicode="G" d="M0 128v128v128v128v128v128v128h128v-128v-128v-128v-128v-128v-128h-128zM128 0v128h128h128h128v-128h-128h-128h-128zM128 896v128h128h128h128v-128h-128h-128h-128zM384 384v128h128h128v-128v-128v-128h-128v128v128h-128zM512 768v128h128v-128h-128z" />
<glyph unicode="H" d="M0 0v128v128v128v128v128v128v128v128h128v-128v-128v-128h128h128h128v128v128v128h128v-128v-128v-128v-128v-128v-128v-128v-128h-128v128v128v128v128h-128h-128h-128v-128v-128v-128v-128h-128z" />
<glyph unicode="I" horiz-adv-x="512" d="M0 0v128h128v128v128v128v128v128v128h-128v128h128h128h128v-128h-128v-128v-128v-128v-128v-128v-128h128v-128h-128h-128h-128z" />
<glyph unicode="J" d="M0 128v128v128h128v-128v-128h-128zM128 0v128h128h128h128v-128h-128h-128h-128zM512 128v128v128v128v128v128v128v128h128v-128v-128v-128v-128v-128v-128v-128h-128z" />
<glyph unicode="K" d="M0 0v128v128v128v128v128v128v128v128h128v-128v-128v-128h128v-128v-128h128v-128h128v-128h-128v128h-128v128h-128v-128v-128v-128h-128zM256 640v128h128v-128h-128zM384 768v128h128v-128h-128zM512 0v128h128v-128h-128zM512 896v128h128v-128h-128z" />
<glyph unicode="L" horiz-adv-x="640" d="M0 0v128v128v128v128v128v128v128v128h128v-128v-128v-128v-128v-128v-128v-128h128h128h128v-128h-128h-128h-128h-128z" />
<glyph unicode="M" horiz-adv-x="1024" d="M0 0v128v128v128v128v128v128v128v128h128v-128h128v-128h128v-128h-128v128h-128v-128v-128v-128v-128v-128v-128h-128zM384 512v128h128v128h128v128h128v128h128v-128v-128v-128v-128v-128v-128v-128v-128h-128v128v128v128v128v128v128h-128v-128h-128v-128h-128z " />
<glyph unicode="N" d="M0 0v128v128v128v128v128v128v128v128h128v-128h128v-128v-128h128v-128v-128h-128v128v128h-128v-128v-128v-128v-128v-128h-128zM384 128v128v128h128v128v128v128v128v128h128v-128v-128v-128v-128v-128v-128v-128v-128h-128v128h-128z" />
<glyph unicode="O" d="M0 128v128v128v128v128v128v128h128v-128v-128v-128v-128v-128v-128h-128zM128 0v128h128h128h128v-128h-128h-128h-128zM128 896v128h128h128h128v-128h-128h-128h-128zM512 128v128v128v128v128v128v128h128v-128v-128v-128v-128v-128v-128h-128z" />
<glyph unicode="P" d="M0 0v128v128v128v128v128v128v128v128h128h128h128h128v-128h128v-128v-128v-128h-128v128v128v128h-128h-128h-128v-128v-128v-128h128h128h128v-128h-128h-128h-128v-128v-128v-128h-128z" />
<glyph unicode="Q" d="M0 128v128v128v128v128v128v128h128v-128v-128v-128v-128v-128v-128h-128zM128 0v128h128v128h128v-128h128v-128h-128h-128h-128zM128 896v128h128h128h128v-128h-128h-128h-128zM512 0h128v-128h-128v128zM512 128v128v128v128v128v128v128h128v-128v-128v-128v-128 v-128v-128h-128z" />
<glyph unicode="R" d="M0 0v128v128v128v128v128v128v128v128h128h128h128h128v-128h128v-128v-128v-128h-128v128v128v128h-128h-128h-128v-128v-128v-128h128h128h128v-128h-128v-128h128v-128h-128v128h-128v128h-128v-128v-128v-128h-128zM512 0v128h128v-128h-128z" />
<glyph unicode="S" d="M0 128v128h128v-128h-128zM0 640v128v128h128v-128v-128h-128zM128 0v128h128h128h128v-128h-128h-128h-128zM128 512v128h128h128h128v-128h-128h-128h-128zM128 896v128h128h128h128v-128h-128h-128h-128zM512 128v128v128v128h128v-128v-128v-128h-128zM512 768v128 h128v-128h-128z" />
<glyph unicode="T" d="M0 896v128h128h128h128h128h128v-128h-128h-128v-128v-128v-128v-128v-128v-128v-128h-128v128v128v128v128v128v128v128h-128h-128z" />
<glyph unicode="U" d="M0 128v128v128v128v128v128v128v128h128v-128v-128v-128v-128v-128v-128v-128h-128zM128 0v128h128h128h128v-128h-128h-128h-128zM512 128v128v128v128v128v128v128v128h128v-128v-128v-128v-128v-128v-128v-128h-128z" />
<glyph unicode="V" d="M0 768v128v128h128v-128v-128h-128zM128 384v128v128v128h128v-128v-128v-128h-128zM256 0v128v128v128h128v-128v-128v-128h-128zM384 384v128v128v128h128v-128v-128v-128h-128zM512 768v128v128h128v-128v-128h-128z" />
<glyph unicode="W" horiz-adv-x="1280" d="M0 768v128v128h128v-128v-128h-128zM128 384v128v128v128h128v-128v-128v-128h-128zM256 0v128v128v128h128v-128v-128v-128h-128zM384 384v128v128h128v-128v-128h-128zM512 640v128v128h128v-128v-128h-128zM640 384v128v128h128v-128v-128h-128zM768 0v128v128v128 h128v-128v-128v-128h-128zM896 384v128v128v128h128v-128v-128v-128h-128zM1024 768v128v128h128v-128v-128h-128z" />
<glyph unicode="X" d="M0 0v128v128h128v-128v-128h-128zM0 768v128v128h128v-128v-128h-128zM128 256v128h128v-128h-128zM128 640v128h128v-128h-128zM256 384v128v128h128v-128v-128h-128zM384 256v128h128v-128h-128zM384 640v128h128v-128h-128zM512 0v128v128h128v-128v-128h-128z M512 768v128v128h128v-128v-128h-128z" />
<glyph unicode="Y" d="M0 768v128v128h128v-128v-128h-128zM128 512v128v128h128v-128v-128h-128zM256 0v128v128v128v128h128v-128v-128v-128v-128h-128zM384 512v128v128h128v-128v-128h-128zM512 768v128v128h128v-128v-128h-128z" />
<glyph unicode="Z" d="M0 0v128v128h128v-128h128h128h128h128v-128h-128h-128h-128h-128h-128zM0 896v128h128h128h128h128h128v-128v-128h-128v128h-128h-128h-128h-128zM128 256v128h128v-128h-128zM256 384v128v128h128v-128v-128h-128zM384 640v128h128v-128h-128z" />
<glyph unicode="[" horiz-adv-x="384" d="M0 0v128v128v128v128v128v128v128v128h128h128v-128h-128v-128v-128v-128v-128v-128v-128v-128h128v-128h-128h-128v128z" />
<glyph unicode="\" horiz-adv-x="640" d="M0 768v128v128h128v-128v-128h-128zM128 512v128v128h128v-128v-128h-128zM256 256v128v128h128v-128v-128h-128zM384 0v128v128h128v-128v-128h-128z" />
<glyph unicode="]" horiz-adv-x="384" d="M0 0h128v128v128v128v128v128v128v128h-128v128h128h128v-128v-128v-128v-128v-128v-128v-128v-128v-128h-128h-128v128z" />
<glyph unicode="^" d="M0 640v128h128v-128h-128zM128 768v128h128v-128h-128zM256 896v128h128v-128h-128zM384 768v128h128v-128h-128zM512 640v128h128v-128h-128z" />
<glyph unicode="_" horiz-adv-x="1024" d="M0 0v128h128h128h128h128h128h128h128v-128h-128h-128h-128h-128h-128h-128h-128z" />
<glyph unicode="`" horiz-adv-x="384" d="M0 896v128v128h128v-128v-128h-128zM128 768v128h128v-128h-128z" />
<glyph unicode="a" horiz-adv-x="640" d="M0 128v128v128h128v128h128h128v128h128v-128v-128v-128v-128v-128h-128h-128h-128v128h-128zM0 512v128h128v-128h-128zM128 128h128h128v128v128h-128h-128v-128v-128zM128 640v128h128h128v-128h-128h-128z" />
<glyph unicode="b" horiz-adv-x="640" d="M0 0v128v128v128v128v128v128v128v128h128v-128v-128h128h128v-128h128v-128v-128v-128v-128h-128v-128h-128h-128h-128zM128 128h128h128v128v128v128v128h-128h-128v-128v-128v-128v-128z" />
<glyph unicode="c" horiz-adv-x="640" d="M0 128v128v128v128v128h128v-128v-128v-128v-128h-128zM128 0v128h128h128v-128h-128h-128zM128 640v128h128h128v-128h-128h-128zM384 128v128h128v-128h-128zM384 512v128h128v-128h-128z" />
<glyph unicode="d" horiz-adv-x="640" d="M0 128v128v128v128v128h128v128h128h128v128v128h128v-128v-128v-128v-128v-128v-128v-128v-128h-128h-128h-128v128h-128zM128 128h128h128v128v128v128v128h-128h-128v-128v-128v-128v-128z" />
<glyph unicode="e" horiz-adv-x="640" d="M0 128v128v128v128v128h128v-128h128h128v128h128v-128v-128h-128h-128h-128v-128v-128h-128zM128 0v128h128h128v-128h-128h-128zM128 640v128h128h128v-128h-128h-128zM384 128v128h128v-128h-128z" />
<glyph unicode="f" horiz-adv-x="640" d="M0 640v128h128v128h128v-128h128v-128h-128v-128v-128v-128v-128v-128h-128v128v128v128v128v128h-128zM256 896v128h128h128v-128h-128h-128z" />
<glyph unicode="g" horiz-adv-x="640" d="M0 256v128v128v128h128v128h128h128h128v-128v-128v-128v-128v-128v-128h-128v128h-128h-128v128h-128zM128 0h128h128v-128h-128h-128v128zM128 256h128h128v128v128v128h-128h-128v-128v-128v-128z" />
<glyph unicode="h" horiz-adv-x="640" d="M0 0v128v128v128v128v128v128v128v128h128v-128v-128h128h128v-128h-128h-128v-128v-128v-128v-128v-128h-128zM384 0v128v128v128v128v128h128v-128v-128v-128v-128v-128h-128z" />
<glyph unicode="i" horiz-adv-x="384" d="M0 640v128h128h128v-128v-128v-128v-128v-128v-128h-128v128v128v128v128v128h-128zM128 896v128h128v-128h-128z" />
<glyph unicode="j" horiz-adv-x="384" d="M0 0h128v-128h-128v128zM0 640v128h128h128v-128v-128v-128v-128v-128v-128h-128v128v128v128v128v128h-128zM128 896v128h128v-128h-128z" />
<glyph unicode="k" horiz-adv-x="640" d="M0 0v128v128v128v128v128v128v128v128h128v-128v-128v-128v-128h128v-128v-128h128v-128h-128v128h-128v-128v-128h-128zM256 512v128h128v-128h-128zM384 0v128h128v-128h-128zM384 640v128h128v-128h-128z" />
<glyph unicode="l" horiz-adv-x="384" d="M0 896v128h128h128v-128v-128v-128v-128v-128v-128v-128v-128h-128v128v128v128v128v128v128v128h-128z" />
<glyph unicode="m" horiz-adv-x="1024" d="M0 0v128v128v128v128v128v128h128h128h128v-128h-128h-128v-128v-128v-128v-128v-128h-128zM384 0v128v128v128v128v128h128v-128v-128v-128v-128v-128h-128zM512 640v128h128h128v-128h-128h-128zM768 0v128v128v128v128v128h128v-128v-128v-128v-128v-128h-128z" />
<glyph unicode="n" horiz-adv-x="640" d="M0 0v128v128v128v128v128v128h128h128h128v-128h-128h-128v-128v-128v-128v-128v-128h-128zM384 0v128v128v128v128v128h128v-128v-128v-128v-128v-128h-128z" />
<glyph unicode="o" horiz-adv-x="640" d="M0 128v128v128v128v128h128v-128v-128v-128v-128h-128zM128 0v128h128h128v-128h-128h-128zM128 640v128h128h128v-128h-128h-128zM384 128v128v128v128v128h128v-128v-128v-128v-128h-128z" />
<glyph unicode="p" horiz-adv-x="640" d="M0 0v128v128v128v128v128v128h128h128h128v-128h128v-128v-128v-128h-128v128v128v128h-128h-128v-128v-128v-128h128h128v-128h-128h-128v-128v-128h-128v128z" />
<glyph unicode="q" horiz-adv-x="640" d="M0 256v128v128v128h128v128h128h128h128v-128v-128v-128v-128v-128v-128v-128h-128v128v128h-128h-128v128h-128zM128 256h128h128v128v128v128h-128h-128v-128v-128v-128z" />
<glyph unicode="r" horiz-adv-x="640" d="M0 0v128v128v128v128v128v128h128v-128h128v-128h-128v-128v-128v-128v-128h-128zM256 640v128h128h128v-128h-128h-128z" />
<glyph unicode="s" horiz-adv-x="640" d="M0 128v128h128v-128h-128zM0 512v128h128v-128h-128zM128 0v128h128h128v-128h-128h-128zM128 384v128h128h128v-128h-128h-128zM128 640v128h128h128h128v-128h-128h-128h-128zM384 128v128v128h128v-128v-128h-128z" />
<glyph unicode="t" horiz-adv-x="512" d="M0 640v128h128v128v128h128v-128v-128h128v-128h-128v-128v-128v-128v-128h-128v128v128v128v128h-128zM256 0v128h128v-128h-128z" />
<glyph unicode="u" horiz-adv-x="640" d="M0 128v128v128v128v128v128h128v-128v-128v-128v-128v-128h-128zM128 0v128h128h128v128v128v128v128v128h128v-128v-128v-128v-128v-128v-128h-128h-128h-128z" />
<glyph unicode="v" d="M0 512v128v128h128v-128v-128h-128zM128 256v128v128h128v-128v-128h-128zM256 0v128v128h128v-128v-128h-128zM384 256v128v128h128v-128v-128h-128zM512 512v128v128h128v-128v-128h-128z" />
<glyph unicode="w" horiz-adv-x="1024" d="M0 512v128v128h128v-128v-128h-128zM128 256v128v128h128v-128v-128h-128zM256 0v128v128h128v-128v-128h-128zM384 256v128v128h128v-128v-128h-128zM512 0v128v128h128v-128v-128h-128zM640 256v128v128h128v-128v-128h-128zM768 512v128v128h128v-128v-128h-128z" />
<glyph unicode="x" d="M0 0v128h128v-128h-128zM0 640v128h128v-128h-128zM128 128v128h128v-128h-128zM128 512v128h128v-128h-128zM256 256v128v128h128v-128v-128h-128zM384 128v128h128v-128h-128zM384 512v128h128v-128h-128zM512 0v128h128v-128h-128zM512 640v128h128v-128h-128z" />
<glyph unicode="y" horiz-adv-x="640" d="M0 256v128v128v128v128h128v-128v-128v-128v-128h-128zM128 0h128h128v-128h-128h-128v128zM128 128v128h128h128v128v128v128v128h128v-128v-128v-128v-128v-128v-128h-128v128h-128h-128z" />
<glyph unicode="z" horiz-adv-x="640" d="M0 0v128v128h128v-128h128h128h128v-128h-128h-128h-128h-128zM0 640v128h128h128h128h128v-128v-128h-128v128h-128h-128h-128zM128 256v128h128v-128h-128zM256 384v128h128v-128h-128z" />
<glyph unicode="{" horiz-adv-x="512" d="M0 384v128h128v-128h-128zM128 0v128v128v128h128v-128v-128v-128h-128zM128 512v128v128v128h128v-128v-128v-128h-128zM256 0h128v-128h-128v128zM256 896v128h128v-128h-128z" />
<glyph unicode="|" horiz-adv-x="256" d="M0 0v128v128v128v128v128v128v128v128h128v-128v-128v-128v-128v-128v-128v-128v-128v-128h-128v128z" />
<glyph unicode="}" horiz-adv-x="512" d="M0 0h128v-128h-128v128zM0 896v128h128v-128h-128zM128 0v128v128v128h128v-128v-128v-128h-128zM128 512v128v128v128h128v-128v-128v-128h-128zM256 384v128h128v-128h-128z" />
<glyph unicode="~" d="M0 384v128h128v-128h-128zM128 512v128h128v-128h-128zM256 384v128h128v-128h-128zM384 256v128h128v-128h-128zM512 384v128h128v-128h-128z" />
<glyph unicode="&#xa1;" horiz-adv-x="512" d="M0 128v128v128v128h128v128v128h128v-128v-128h128v-128v-128v-128h-128v-128h-128v128h-128zM128 896v128h128v-128h-128z" />
<glyph unicode="&#xa2;" d="M0 256v128v128v128h128v-128v-128v-128h-128zM128 128v128h128h128h128v-128h-128v-128h-128v128h-128zM128 640v128h128v128h128v-128h128v-128h-128h-128h-128zM512 256v128h128v-128h-128zM512 512v128h128v-128h-128z" />
<glyph unicode="&#xa3;" d="M0 0v128h128v128v128h-128v128h128v128v128h128v-128v-128h128h128v-128h-128h-128v-128v-128h128h128h128v-128h-128h-128h-128h-128h-128zM256 768v128h128h128v-128h-128h-128zM512 640v128h128v-128h-128z" />
<glyph unicode="&#xa4;" d="M0 128v128h128v-128h-128zM0 640v128h128v-128h-128zM128 256v128v128v128h128h128h128v-128v-128v-128h-128h-128h-128zM256 384h128v128h-128v-128zM512 128v128h128v-128h-128zM512 640v128h128v-128h-128z" />
<glyph unicode="&#xa5;" d="M0 128v128h128h128v128h-128h-128v128h128h128v128h128v-128h128h128v-128h-128h-128v-128h128h128v-128h-128h-128v-128h-128v128h-128h-128zM0 768v128v128h128v-128v-128h-128zM128 640v128h128v-128h-128zM384 640v128h128v-128h-128zM512 768v128v128h128v-128v-128 h-128z" />
<glyph unicode="&#xa6;" horiz-adv-x="256" d="M0 0v128v128v128h128v-128v-128v-128v-128h-128v128zM0 512v128v128v128v128h128v-128v-128v-128v-128h-128z" />
<glyph unicode="&#xa7;" d="M0 0v128h128h128h128h128v-128h-128h-128h-128h-128zM0 384v128v128h128v-128v-128h-128zM0 768v128h128v-128h-128zM128 256v128h128h128h128v-128h-128h-128h-128zM128 640v128h128h128h128v-128h-128h-128h-128zM128 896v128h128h128h128h128v-128h-128h-128h-128 h-128zM512 128v128h128v-128h-128zM512 384v128v128h128v-128v-128h-128z" />
<glyph unicode="&#xa8;" horiz-adv-x="512" d="M0 896v128h128v-128h-128zM256 896v128h128v-128h-128z" />
<glyph unicode="&#xa9;" horiz-adv-x="1024" d="M0 256v128v128v128h128v-128v-128v-128h-128zM128 128v128h128v-128h-128zM128 640v128h128v-128h-128zM256 0v128h128h128h128v-128h-128h-128h-128zM256 256v128v128v128h128h128h128v-128h-128h-128v-128h128h128v-128h-128h-128h-128zM256 768v128h128h128h128v-128 h-128h-128h-128zM640 128v128h128v-128h-128zM640 640v128h128v-128h-128zM768 256v128v128v128h128v-128v-128v-128h-128z" />
<glyph unicode="&#xab;" horiz-adv-x="896" d="M0 384v128h128v-128h-128zM128 256v128h128v-128h-128zM128 512v128h128v-128h-128zM256 128v128h128v-128h-128zM256 640v128h128v-128h-128zM384 384v128h128v-128h-128zM512 256v128h128v-128h-128zM512 512v128h128v-128h-128zM640 128v128h128v-128h-128zM640 640 v128h128v-128h-128z" />
<glyph unicode="&#xac;" d="M0 512v128h128h128h128h128h128v-128v-128v-128h-128v128v128h-128h-128h-128h-128z" />
<glyph unicode="&#xad;" horiz-adv-x="640" d="M0 384v128h128h128h128h128v-128h-128h-128h-128h-128z" />
<glyph unicode="&#xae;" horiz-adv-x="1024" d="M0 256v128v128v128h128v-128v-128v-128h-128zM128 128v128h128v-128h-128zM128 640v128h128v-128h-128zM256 0v128h128h128h128v-128h-128h-128h-128zM256 256v128v128v128h128h128h128v-128h-128v-128h-128v-128h-128zM256 768v128h128h128h128v-128h-128h-128h-128z M512 256v128h128v-128h-128zM640 128v128h128v-128h-128zM640 640v128h128v-128h-128zM768 256v128v128v128h128v-128v-128v-128h-128z" />
<glyph unicode="&#xaf;" horiz-adv-x="1024" d="M0 1152v128h128h128h128h128h128h128h128v-128h-128h-128h-128h-128h-128h-128h-128z" />
<glyph unicode="&#xb1;" d="M0 0v128h128h128h128h128h128v-128h-128h-128h-128h-128h-128zM0 512v128h128h128v128v128h128v-128v-128h128h128v-128h-128h-128v-128v-128h-128v128v128h-128h-128z" />
<glyph unicode="&#xb4;" horiz-adv-x="512" d="M128 768v128h128v-128h-128zM256 896v128v128h128v-128v-128h-128z" />
<glyph unicode="&#xb5;" horiz-adv-x="896" d="M0 0v128v128v128v128v128v128h128v-128v-128v-128v-128v-128h128h128h128v-128h-128h-128h-128v-128v-128h-128v128v128zM512 128v128v128v128v128v128h128v-128v-128v-128v-128v-128h-128zM640 0v128h128v-128h-128z" />
<glyph unicode="&#xb6;" horiz-adv-x="1024" d="M0 640v128v128v128h128v128h128h128h128h128h128h128v-128h-128v-128v-128v-128v-128v-128v-128v-128v-128v-128h-128v128v128v128v128v128v128v128v128v128h-128v-128v-128v-128v-128v-128v-128v-128v-128v-128h-128v128v128v128v128v128h-128h-128v128h-128z" />
<glyph unicode="&#xb7;" horiz-adv-x="384" d="M128 384v128h128v-128h-128z" />
<glyph unicode="&#xbb;" horiz-adv-x="896" d="M0 128v128h128v-128h-128zM0 640v128h128v-128h-128zM128 256v128h128v-128h-128zM128 512v128h128v-128h-128zM256 384v128h128v-128h-128zM384 128v128h128v-128h-128zM384 640v128h128v-128h-128zM512 256v128h128v-128h-128zM512 512v128h128v-128h-128zM640 384v128 h128v-128h-128z" />
<glyph unicode="&#xbf;" d="M0 128v128v128h128v-128v-128h-128zM128 0v128h128h128h128v-128h-128h-128h-128zM128 384v128h128v-128h-128zM256 512v128v128h128v-128v-128h-128zM256 896v128h128v-128h-128zM512 128v128h128v-128h-128z" />
<glyph unicode="&#xc0;" d="M0 0v128v128v128v128h128v-128h128h128h128v128h128v-128v-128v-128v-128h-128v128v128h-128h-128h-128v-128v-128h-128zM0 1024v128h128h128v-128h-128h-128zM128 512v128h128v-128h-128zM256 640v128h128v-128h-128zM256 896v128h128v-128h-128zM384 512v128h128v-128 h-128z" />
<glyph unicode="&#xc1;" d="M0 0v128v128v128v128h128v-128h128h128h128v128h128v-128v-128v-128v-128h-128v128v128h-128h-128h-128v-128v-128h-128zM128 512v128h128v-128h-128zM256 640v128h128v-128h-128zM256 896v128h128v-128h-128zM384 512v128h128v-128h-128zM384 1024v128h128h128v-128 h-128h-128z" />
<glyph unicode="&#xc2;" d="M0 0v128v128v128v128h128v-128h128h128h128v128h128v-128v-128v-128v-128h-128v128v128h-128h-128h-128v-128v-128h-128zM128 512v128h128v-128h-128zM128 896v128h128v-128h-128zM256 640v128h128v-128h-128zM256 1024v128h128v-128h-128zM384 512v128h128v-128h-128z M384 896v128h128v-128h-128z" />
<glyph unicode="&#xc3;" d="M0 0v128v128v128v128h128v-128h128h128h128v128h128v-128v-128v-128v-128h-128v128v128h-128h-128h-128v-128v-128h-128zM0 1024v128h128v-128h-128zM128 512v128h128v-128h-128zM128 1152v128h128v-128h-128zM256 640v128h128v-128h-128zM256 1024v128h128v-128h-128z M384 512v128h128v-128h-128zM384 896v128h128v-128h-128zM512 1024v128h128v-128h-128z" />
<glyph unicode="&#xc4;" d="M0 0v128v128v128v128h128v-128h128h128h128v128h128v-128v-128v-128v-128h-128v128v128h-128h-128h-128v-128v-128h-128zM128 512v128h128v-128h-128zM128 896v128h128v-128h-128zM256 640v128h128v-128h-128zM384 512v128h128v-128h-128zM384 896v128h128v-128h-128z " />
<glyph unicode="&#xc5;" d="M0 0v128v128v128v128h128v-128h128h128h128v128h128v-128v-128v-128v-128h-128v128v128h-128h-128h-128v-128v-128h-128zM128 512v128h128v-128h-128zM128 1024v128h128v-128h-128zM256 640v128h128v-128h-128zM256 896v128h128v-128h-128zM256 1152v128h128v-128h-128z M384 512v128h128v-128h-128zM384 1024v128h128v-128h-128z" />
<glyph unicode="&#xc6;" horiz-adv-x="1152" d="M0 0v128v128h128v-128v-128h-128zM128 256v128v128h128v128v128h128v128v128h128h128h128h128h128v-128h-128h-128h-128v-128v-128h128h128v-128h-128h-128v-128v-128v-128h128h128h128v-128h-128h-128h-128h-128v128v128h-128h-128h-128zM256 384h128h128v128v128v128 h-128v-128v-128h-128v-128z" />
<glyph unicode="&#xc7;" d="M0 128v128v128v128v128v128v128h128v-128v-128v-128v-128v-128v-128h-128zM128 0v128h128h128h128v-128v-128h-128v128h-128h-128zM128 -128h128h128v-128h-128h-128v128zM128 896v128h128h128h128v-128h-128h-128h-128zM512 128v128h128v-128h-128zM512 768v128h128 v-128h-128z" />
<glyph unicode="&#xc8;" d="M0 0v128v128v128v128v128v128h128h128h128h128h128v-128h-128h-128h-128h-128v-128h128h128h128v-128h-128h-128h-128v-128v-128h128h128h128h128v-128h-128h-128h-128h-128h-128zM0 1024v128h128h128v-128h-128h-128zM256 896v128h128v-128h-128z" />
<glyph unicode="&#xc9;" d="M0 0v128v128v128v128v128v128h128h128h128h128h128v-128h-128h-128h-128h-128v-128h128h128h128v-128h-128h-128h-128v-128v-128h128h128h128h128v-128h-128h-128h-128h-128h-128zM256 896v128h128v-128h-128zM384 1024v128h128h128v-128h-128h-128z" />
<glyph unicode="&#xca;" d="M0 0v128v128v128v128v128v128h128h128h128h128h128v-128h-128h-128h-128h-128v-128h128h128h128v-128h-128h-128h-128v-128v-128h128h128h128h128v-128h-128h-128h-128h-128h-128zM128 896v128h128v-128h-128zM256 1024v128h128v-128h-128zM384 896v128h128v-128h-128z " />
<glyph unicode="&#xcb;" d="M0 0v128v128v128v128v128v128h128h128h128h128h128v-128h-128h-128h-128h-128v-128h128h128h128v-128h-128h-128h-128v-128v-128h128h128h128h128v-128h-128h-128h-128h-128h-128zM128 896v128h128v-128h-128zM384 896v128h128v-128h-128z" />
<glyph unicode="&#xcc;" d="M0 0v128h128h128v128v128v128v128h-128h-128v128h128h128h128h128h128v-128h-128h-128v-128v-128v-128v-128h128h128v-128h-128h-128h-128h-128h-128zM0 1024v128h128h128v-128h-128h-128zM256 896v128h128v-128h-128z" />
<glyph unicode="&#xcd;" d="M0 0v128h128h128v128v128v128v128h-128h-128v128h128h128h128h128h128v-128h-128h-128v-128v-128v-128v-128h128h128v-128h-128h-128h-128h-128h-128zM256 896v128h128v-128h-128zM384 1024v128h128h128v-128h-128h-128z" />
<glyph unicode="&#xce;" d="M0 0v128h128h128v128v128v128v128h-128h-128v128h128h128h128h128h128v-128h-128h-128v-128v-128v-128v-128h128h128v-128h-128h-128h-128h-128h-128zM128 896v128h128v-128h-128zM256 1024v128h128v-128h-128zM384 896v128h128v-128h-128z" />
<glyph unicode="&#xcf;" d="M0 0v128h128h128v128v128v128v128h-128h-128v128h128h128h128h128h128v-128h-128h-128v-128v-128v-128v-128h128h128v-128h-128h-128h-128h-128h-128zM128 896v128h128v-128h-128zM384 896v128h128v-128h-128z" />
<glyph unicode="&#xd0;" horiz-adv-x="896" d="M0 512v128h128v128v128v128h128h128h128v-128h128v-128h128v-128v-128v-128v-128h-128v-128h-128v-128h-128h-128h-128v128v128v128v128h-128zM256 128h128h128v128h128v128v128v128v128h-128v128h-128h-128v-128v-128h128h128v-128h-128h-128v-128v-128v-128z" />
<glyph unicode="&#xd1;" d="M0 0v128v128v128v128v128v128h128v-128h128v-128h128v-128v-128h-128v128v128h-128v-128v-128v-128v-128h-128zM0 1024v128h128v-128h-128zM128 1152v128h128v-128h-128zM256 1024v128h128v-128h-128zM384 128v128h128v128v128v128v128h128v-128v-128v-128v-128v-128 v-128h-128v128h-128zM384 896v128h128v-128h-128zM512 1024v128h128v-128h-128z" />
<glyph unicode="&#xd2;" d="M0 128v128v128v128v128h128v-128v-128v-128v-128h-128zM0 1024v128h128h128v-128h-128h-128zM128 0v128h128h128h128v-128h-128h-128h-128zM128 640v128h128h128h128v-128h-128h-128h-128zM256 896v128h128v-128h-128zM512 128v128v128v128v128h128v-128v-128v-128v-128 h-128z" />
<glyph unicode="&#xd3;" d="M0 128v128v128v128v128h128v-128v-128v-128v-128h-128zM128 0v128h128h128h128v-128h-128h-128h-128zM128 640v128h128h128h128v-128h-128h-128h-128zM256 896v128h128v-128h-128zM384 1024v128h128h128v-128h-128h-128zM512 128v128v128v128v128h128v-128v-128v-128 v-128h-128z" />
<glyph unicode="&#xd4;" d="M0 128v128v128v128v128h128v-128v-128v-128v-128h-128zM128 0v128h128h128h128v-128h-128h-128h-128zM128 640v128h128h128h128v-128h-128h-128h-128zM128 896v128h128v-128h-128zM256 1024v128h128v-128h-128zM384 896v128h128v-128h-128zM512 128v128v128v128v128h128 v-128v-128v-128v-128h-128z" />
<glyph unicode="&#xd5;" d="M0 128v128v128v128v128h128v-128v-128v-128v-128h-128zM0 1024v128h128v-128h-128zM128 0v128h128h128h128v-128h-128h-128h-128zM128 640v128h128h128h128v-128h-128h-128h-128zM128 1152v128h128v-128h-128zM256 1024v128h128v-128h-128zM384 896v128h128v-128h-128z M512 128v128v128v128v128h128v-128v-128v-128v-128h-128zM512 1024v128h128v-128h-128z" />
<glyph unicode="&#xd6;" d="M0 128v128v128v128v128h128v-128v-128v-128v-128h-128zM128 0v128h128h128h128v-128h-128h-128h-128zM128 640v128h128h128h128v-128h-128h-128h-128zM128 896v128h128v-128h-128zM384 896v128h128v-128h-128zM512 128v128v128v128v128h128v-128v-128v-128v-128h-128z " />
<glyph unicode="&#xd7;" d="M0 128v128h128v-128h-128zM0 640v128h128v-128h-128zM128 256v128h128v-128h-128zM128 512v128h128v-128h-128zM256 384v128h128v-128h-128zM384 256v128h128v-128h-128zM384 512v128h128v-128h-128zM512 128v128h128v-128h-128zM512 640v128h128v-128h-128z" />
<glyph unicode="&#xd8;" d="M0 128v128v128v128v128v128v128h128v-128v-128v-128v-128h128v-128v-128h128h128v-128h-128h-128h-128v128h-128zM128 896v128h128h128h128v-128h128v-128v-128v-128v-128v-128v-128h-128v128v128v128v128h-128v-128v-128h-128v128v128h128v128v128h-128h-128z" />
<glyph unicode="&#xd9;" d="M0 128v128v128v128v128v128h128v-128v-128v-128v-128v-128h-128zM0 1024v128h128h128v-128h-128h-128zM128 0v128h128h128h128v-128h-128h-128h-128zM256 896v128h128v-128h-128zM512 128v128v128v128v128v128h128v-128v-128v-128v-128v-128h-128z" />
<glyph unicode="&#xda;" d="M0 128v128v128v128v128v128h128v-128v-128v-128v-128v-128h-128zM128 0v128h128h128h128v-128h-128h-128h-128zM256 896v128h128v-128h-128zM384 1024v128h128h128v-128h-128h-128zM512 128v128v128v128v128v128h128v-128v-128v-128v-128v-128h-128z" />
<glyph unicode="&#xdb;" d="M0 128v128v128v128v128v128h128v-128v-128v-128v-128v-128h-128zM128 0v128h128h128h128v-128h-128h-128h-128zM128 896v128h128v-128h-128zM256 1024v128h128v-128h-128zM384 896v128h128v-128h-128zM512 128v128v128v128v128v128h128v-128v-128v-128v-128v-128h-128z " />
<glyph unicode="&#xdc;" d="M0 128v128v128v128v128v128h128v-128v-128v-128v-128v-128h-128zM128 0v128h128h128h128v-128h-128h-128h-128zM128 896v128h128v-128h-128zM384 896v128h128v-128h-128zM512 128v128v128v128v128v128h128v-128v-128v-128v-128v-128h-128z" />
<glyph unicode="&#xdd;" d="M0 640v128h128v-128h-128zM128 512v128h128v-128h-128zM256 0v128v128v128v128h128v-128v-128v-128v-128h-128zM256 896v128h128v-128h-128zM384 512v128h128v-128h-128zM384 1024v128h128h128v-128h-128h-128zM512 640v128h128v-128h-128z" />
<glyph unicode="&#xde;" d="M0 0v128v128v128v128v128v128v128v128v128h128v-128v-128h128h128h128v-128h128v-128v-128v-128h-128v128v128v128h-128h-128h-128v-128v-128v-128h128h128h128v-128h-128h-128h-128v-128v-128h-128z" />
<glyph unicode="&#xdf;" d="M0 0v128v128v128v128v128v128v128h128v-128v-128v-128v-128v-128v-128v-128h-128zM128 896v128h128h128v-128h-128h-128zM256 0v128h128h128v-128h-128h-128zM256 512v128h128v-128h-128zM384 384v128h128v-128h-128zM384 640v128v128h128v-128v-128h-128zM512 128v128 v128h128v-128v-128h-128z" />
<glyph unicode="&#xe0;" d="M0 128v128h128v128h128h128h128v128h128v-128v-128v-128v-128h-128h-128h-128h-128v128h-128zM0 896v128h128h128v-128h-128h-128zM128 128h128h128h128v128h-128h-128h-128v-128zM128 512v128h128h128h128v-128h-128h-128h-128zM256 768v128h128v-128h-128z" />
<glyph unicode="&#xe1;" d="M0 128v128h128v128h128h128h128v128h128v-128v-128v-128v-128h-128h-128h-128h-128v128h-128zM128 128h128h128h128v128h-128h-128h-128v-128zM128 512v128h128h128h128v-128h-128h-128h-128zM256 768v128h128v-128h-128zM384 896v128h128h128v-128h-128h-128z" />
<glyph unicode="&#xe2;" d="M0 128v128h128v128h128h128h128v128h128v-128v-128v-128v-128h-128h-128h-128h-128v128h-128zM128 128h128h128h128v128h-128h-128h-128v-128zM128 512v128h128h128h128v-128h-128h-128h-128zM128 768v128h128v-128h-128zM256 896v128h128v-128h-128zM384 768v128h128 v-128h-128z" />
<glyph unicode="&#xe3;" d="M0 128v128h128v128h128h128h128v128h128v-128v-128v-128v-128h-128h-128h-128h-128v128h-128zM0 896v128h128v-128h-128zM128 128h128h128h128v128h-128h-128h-128v-128zM128 512v128h128h128h128v-128h-128h-128h-128zM128 1024v128h128v-128h-128zM256 896v128h128 v-128h-128zM384 768v128h128v-128h-128zM512 896v128h128v-128h-128z" />
<glyph unicode="&#xe4;" d="M0 128v128h128v128h128h128h128v128h128v-128v-128v-128v-128h-128h-128h-128h-128v128h-128zM128 128h128h128h128v128h-128h-128h-128v-128zM128 512v128h128h128h128v-128h-128h-128h-128zM128 768v128h128v-128h-128zM384 768v128h128v-128h-128z" />
<glyph unicode="&#xe5;" d="M0 128v128h128v128h128h128h128v128h128v-128v-128v-128v-128h-128h-128h-128h-128v128h-128zM128 128h128h128h128v128h-128h-128h-128v-128zM128 512v128h128h128h128v-128h-128h-128h-128zM128 896v128h128v-128h-128zM256 768v128h128v-128h-128zM256 1024v128h128 v-128h-128zM384 896v128h128v-128h-128z" />
<glyph unicode="&#xe6;" horiz-adv-x="1024" d="M0 128v128v128h128v128h128h128v128h128v-128h128h128v128h128v-128v-128h-128h-128h-128v-128v-128h128h128h128v-128h-128h-128h-128h-128h-128h-128v128h-128zM128 128h128h128v128v128h-128h-128v-128v-128zM128 640v128h128h128v-128h-128h-128zM512 640v128h128 h128v-128h-128h-128z" />
<glyph unicode="&#xe7;" horiz-adv-x="640" d="M0 128v128v128v128v128h128v-128v-128v-128v-128h-128zM128 0v128h128h128v-128v-128h-128v128h-128zM128 -128h128v-128h-128v128zM128 640v128h128h128v-128h-128h-128zM384 128v128h128v-128h-128zM384 512v128h128v-128h-128z" />
<glyph unicode="&#xe8;" d="M0 128v128v128v128h128v-128h128h128h128v128h128v-128v-128h-128h-128h-128h-128v-128h-128zM0 896v128h128h128v-128h-128h-128zM128 0v128h128h128h128h128v-128h-128h-128h-128h-128zM128 512v128h128h128h128v-128h-128h-128h-128zM256 768v128h128v-128h-128z" />
<glyph unicode="&#xe9;" d="M0 128v128v128v128h128v-128h128h128h128v128h128v-128v-128h-128h-128h-128h-128v-128h-128zM128 0v128h128h128h128h128v-128h-128h-128h-128h-128zM128 512v128h128h128h128v-128h-128h-128h-128zM256 768v128h128v-128h-128zM384 896v128h128h128v-128h-128h-128z " />
<glyph unicode="&#xea;" d="M0 128v128v128v128h128v-128h128h128h128v128h128v-128v-128h-128h-128h-128h-128v-128h-128zM128 0v128h128h128h128h128v-128h-128h-128h-128h-128zM128 512v128h128h128h128v-128h-128h-128h-128zM128 768v128h128v-128h-128zM256 896v128h128v-128h-128zM384 768v128 h128v-128h-128z" />
<glyph unicode="&#xeb;" d="M0 128v128v128v128h128v-128h128h128h128v128h128v-128v-128h-128h-128h-128h-128v-128h-128zM128 0v128h128h128h128h128v-128h-128h-128h-128h-128zM128 512v128h128h128h128v-128h-128h-128h-128zM128 768v128h128v-128h-128zM384 768v128h128v-128h-128z" />
<glyph unicode="&#xec;" horiz-adv-x="384" d="M0 512v128h128h128v-128v-128v-128v-128v-128h-128v128v128v128v128h-128zM0 896v128h128v-128h-128zM128 768v128h128v-128h-128z" />
<glyph unicode="&#xed;" horiz-adv-x="512" d="M0 512v128h128h128v-128v-128v-128v-128v-128h-128v128v128v128v128h-128zM128 768v128h128v-128h-128zM256 896v128h128v-128h-128z" />
<glyph unicode="&#xee;" horiz-adv-x="512" d="M0 512v128h128h128v-128v-128v-128v-128v-128h-128v128v128v128v128h-128zM0 768v128h128v-128h-128zM128 896v128h128v-128h-128zM256 768v128h128v-128h-128z" />
<glyph unicode="&#xef;" horiz-adv-x="512" d="M0 512v128h128h128v-128v-128v-128v-128v-128h-128v128v128v128v128h-128zM0 768v128h128v-128h-128zM256 768v128h128v-128h-128z" />
<glyph unicode="&#xf0;" d="M0 128v128v128v128h128v128h128h128h128v128v128h128v-128v-128v-128v-128v-128v-128h-128v128v128v128h-128h-128h-128v-128v-128v-128h-128zM128 0v128h128h128h128v-128h-128h-128h-128zM128 1024v128h128h128v-128h-128h-128zM256 768v128h128v-128h-128zM384 896 v128h128v-128h-128zM512 1024v128h128v-128h-128z" />
<glyph unicode="&#xf1;" d="M0 0v128v128v128v128v128h128h128h128h128v-128h-128h-128h-128v-128v-128v-128v-128h-128zM0 896v128h128v-128h-128zM128 1024v128h128v-128h-128zM256 896v128h128v-128h-128zM384 768v128h128v-128h-128zM512 0v128v128v128v128h128v-128v-128v-128v-128h-128z M512 896v128h128v-128h-128z" />
<glyph unicode="&#xf2;" d="M0 128v128v128v128h128v-128v-128v-128h-128zM0 896v128h128h128v-128h-128h-128zM128 0v128h128h128h128v-128h-128h-128h-128zM128 512v128h128h128h128v-128h-128h-128h-128zM256 768v128h128v-128h-128zM512 128v128v128v128h128v-128v-128v-128h-128z" />
<glyph unicode="&#xf3;" d="M0 128v128v128v128h128v-128v-128v-128h-128zM128 0v128h128h128h128v-128h-128h-128h-128zM128 512v128h128h128h128v-128h-128h-128h-128zM256 768v128h128v-128h-128zM384 896v128h128h128v-128h-128h-128zM512 128v128v128v128h128v-128v-128v-128h-128z" />
<glyph unicode="&#xf4;" d="M0 128v128v128v128h128v-128v-128v-128h-128zM128 0v128h128h128h128v-128h-128h-128h-128zM128 512v128h128h128h128v-128h-128h-128h-128zM128 768v128h128v-128h-128zM256 896v128h128v-128h-128zM384 768v128h128v-128h-128zM512 128v128v128v128h128v-128v-128v-128 h-128z" />
<glyph unicode="&#xf5;" d="M0 128v128v128v128h128v-128v-128v-128h-128zM0 896v128h128v-128h-128zM128 0v128h128h128h128v-128h-128h-128h-128zM128 512v128h128h128h128v-128h-128h-128h-128zM128 1024v128h128v-128h-128zM256 896v128h128v-128h-128zM384 768v128h128v-128h-128zM512 128v128 v128v128h128v-128v-128v-128h-128zM512 896v128h128v-128h-128z" />
<glyph unicode="&#xf6;" d="M0 128v128v128v128h128v-128v-128v-128h-128zM128 0v128h128h128h128v-128h-128h-128h-128zM128 512v128h128h128h128v-128h-128h-128h-128zM128 768v128h128v-128h-128zM384 768v128h128v-128h-128zM512 128v128v128v128h128v-128v-128v-128h-128z" />
<glyph unicode="&#xf7;" d="M0 384v128h128h128h128h128h128v-128h-128h-128h-128h-128h-128zM256 128v128h128v-128h-128zM256 640v128h128v-128h-128z" />
<glyph unicode="&#xf8;" d="M0 0v128v128v128v128h128v-128v-128h128v-128h128h128v-128h-128h-128h-128h-128zM128 512v128h128h128h128h128v-128v-128v-128v-128h-128v128v128h-128v-128h-128v128h128v128h-128h-128z" />
<glyph unicode="&#xf9;" d="M0 128v128v128v128v128h128v-128v-128v-128v-128h-128zM0 896v128h128h128v-128h-128h-128zM128 0v128h128h128h128v128v128v128v128h128v-128v-128v-128v-128v-128h-128h-128h-128h-128zM256 768v128h128v-128h-128z" />
<glyph unicode="&#xfa;" d="M0 128v128v128v128v128h128v-128v-128v-128v-128h-128zM128 0v128h128h128h128v128v128v128v128h128v-128v-128v-128v-128v-128h-128h-128h-128h-128zM256 768v128h128v-128h-128zM384 896v128h128h128v-128h-128h-128z" />
<glyph unicode="&#xfb;" d="M0 128v128v128v128v128h128v-128v-128v-128v-128h-128zM128 0v128h128h128h128v128v128v128v128h128v-128v-128v-128v-128v-128h-128h-128h-128h-128zM128 768v128h128v-128h-128zM256 896v128h128v-128h-128zM384 768v128h128v-128h-128z" />
<glyph unicode="&#xfc;" d="M0 128v128v128v128v128h128v-128v-128v-128v-128h-128zM128 0v128h128h128h128v128v128v128v128h128v-128v-128v-128v-128v-128h-128h-128h-128h-128zM128 768v128h128v-128h-128zM384 768v128h128v-128h-128z" />
<glyph unicode="&#xfd;" d="M0 256v128v128v128h128v-128v-128v-128h-128zM128 0h128h128h128v-128h-128h-128h-128v128zM128 128v128h128h128h128v128v128v128h128v-128v-128v-128v-128v-128h-128v128h-128h-128h-128zM256 768v128h128v-128h-128zM384 896v128h128h128v-128h-128h-128z" />
<glyph unicode="&#xfe;" horiz-adv-x="640" d="M0 0v128v128v128v128v128v128v128h128v-128v-128h128h128v-128h128v-128v-128v-128h-128v128v128v128h-128h-128v-128v-128v-128h128h128v-128h-128h-128v-128v-128h-128v128v128z" />
<glyph unicode="&#xff;" d="M0 256v128v128v128h128v-128v-128v-128h-128zM128 0h128h128h128v-128h-128h-128h-128v128zM128 128v128h128h128h128v128v128v128h128v-128v-128v-128v-128v-128h-128v128h-128h-128h-128zM128 768v128h128v-128h-128zM384 768v128h128v-128h-128z" />
<glyph unicode="&#x152;" horiz-adv-x="1152" d="M0 256v128v128v128v128h128v128h128v128h128h128h128h128h128h128v-128h-128h-128h-128v-128v-128h128h128v-128h-128h-128v-128v-128v-128h128h128h128v-128h-128h-128h-128h-128h-128h-128v128h-128v128h-128zM128 256h128v-128h128h128v128v128v128v128v128v128h-128 h-128v-128h-128v-128v-128v-128v-128z" />
<glyph unicode="&#x153;" horiz-adv-x="1024" d="M0 128v128v128v128v128h128v-128v-128v-128v-128h-128zM128 0v128h128h128v-128h-128h-128zM128 640v128h128h128v-128h-128h-128zM384 128v128v128v128v128h128v-128h128h128v128h128v-128v-128h-128h-128h-128v-128v-128h-128zM512 0v128h128h128h128v-128h-128h-128 h-128zM512 640v128h128h128v-128h-128h-128z" />
<glyph unicode="&#x178;" d="M0 640v128h128v-128h-128zM128 512v128h128v-128h-128zM128 896v128h128v-128h-128zM256 0v128v128v128v128h128v-128v-128v-128v-128h-128zM384 512v128h128v-128h-128zM384 896v128h128v-128h-128zM512 640v128h128v-128h-128z" />
<glyph unicode="&#x2000;" horiz-adv-x="682" />
<glyph unicode="&#x2001;" horiz-adv-x="1365" />
<glyph unicode="&#x2002;" horiz-adv-x="682" />
<glyph unicode="&#x2003;" horiz-adv-x="1365" />
<glyph unicode="&#x2004;" horiz-adv-x="455" />
<glyph unicode="&#x2005;" horiz-adv-x="341" />
<glyph unicode="&#x2006;" horiz-adv-x="227" />
<glyph unicode="&#x2007;" horiz-adv-x="227" />
<glyph unicode="&#x2008;" horiz-adv-x="170" />
<glyph unicode="&#x2009;" horiz-adv-x="273" />
<glyph unicode="&#x200a;" horiz-adv-x="75" />
<glyph unicode="&#x2010;" horiz-adv-x="640" d="M0 384v128h128h128h128h128v-128h-128h-128h-128h-128z" />
<glyph unicode="&#x2011;" horiz-adv-x="640" d="M0 384v128h128h128h128h128v-128h-128h-128h-128h-128z" />
<glyph unicode="&#x2012;" horiz-adv-x="640" d="M0 384v128h128h128h128h128v-128h-128h-128h-128h-128z" />
<glyph unicode="&#x2013;" horiz-adv-x="1152" d="M0 384v128h256h256h256h256v-128h-256h-256h-256h-256z" />
<glyph unicode="&#x2014;" horiz-adv-x="2176" d="M0 384v128h512h512h512h512v-128h-512h-512h-512h-512z" />
<glyph unicode="&#x2018;" horiz-adv-x="384" d="M0 768v128v128h128v-128h128v-128h-128h-128zM128 1024v128h128v-128h-128z" />
<glyph unicode="&#x2019;" horiz-adv-x="384" d="M0 768v128h128v-128h-128zM0 1024v128h128h128v-128v-128h-128v128h-128z" />
<glyph unicode="&#x201c;" d="M0 768v128v128h128v-128h128v-128h-128h-128zM128 1024v128h128v-128h-128zM384 768v128v128h128v-128h128v-128h-128h-128zM512 1024v128h128v-128h-128z" />
<glyph unicode="&#x201d;" d="M0 768v128h128v-128h-128zM0 1024v128h128h128v-128v-128h-128v128h-128zM384 768v128h128v-128h-128zM384 1024v128h128h128v-128v-128h-128v128h-128z" />
<glyph unicode="&#x2026;" horiz-adv-x="1152" d="M0 384v128v128h128h128v-128v-128h-128h-128zM384 384v128v128h128h128v-128v-128h-128h-128zM768 384v128v128h128h128v-128v-128h-128h-128z" />
<glyph unicode="&#x202f;" horiz-adv-x="273" />
<glyph unicode="&#x205f;" horiz-adv-x="341" />
<glyph unicode="&#x20ac;" horiz-adv-x="896" d="M0 256v128h128v128h-128v128h128v128h128v-128h128h128v-128h-128h-128v-128h128h128v-128h-128h-128v-128h-128v128h-128zM256 0v128h128h128h128v-128h-128h-128h-128zM256 768v128h128h128h128v-128h-128h-128h-128zM640 128v128h128v-128h-128zM640 640v128h128v-128 h-128z" />
<glyph unicode="&#x25fc;" horiz-adv-x="770" d="M0 0v770h770v-770h-770z" />
</font>
</defs>
</svg>
